V2EX = way to explore
V2EX 是一个关于分享和探索的地方
现在注册
已注册用户请  登录
miyunda
V2EX  ›  macOS

求个免费的视频转换软件,尽量追求 permute3 那样

  •  
  •   miyunda · 2020-12-10 13:23:14 +08:00 · 1637 次点击
    这是一个创建于 609 天前的主题,其中的信息可能已经有所发展或是发生改变。
    谢谢。速度慢点也行,输出质量差点也行,就转小视频
    15 条回复    2021-11-14 05:18:52 +08:00
    CSE
        1
    CSE  
       2020-12-10 13:31:36 +08:00   ❤️ 1
    brew install ffmpeg

    ffmpeg -i example.mkv -c copy example.mp4
    CSE
        2
    CSE  
       2020-12-10 13:32:44 +08:00
    permute 3 底层也是 ffmpeg,那为什么要用 permute 3,直接用免费开源的 ffmpeg 就好
    ffmpeg 不是一般的好用,不是一般的强大,不是一般的简单
    fredcc
        3
    fredcc  
       2020-12-10 13:35:45 +08:00
    handbrake 不行么
    miyunda
        4
    miyunda  
    OP
       2020-12-10 13:50:09 +08:00
    感谢 @CSE @fredcc

    我是要去掉原视频的封装,所以把` -c copy` 去掉了
    效果良好
    如下所示:
    frame= 1441 fps= 89 q=29.0 size= 18176kB time=00:00:48.52 bitrate=3068.2kbits/s speed= 3x
    miyunda
        5
    miyunda  
    OP
       2020-12-10 13:50:41 +08:00
    加上 GPU 开关后是这样:
    frame= 2203 fps=273 q=-0.0 Lsize= 7668kB time=00:01:13.60 bitrate= 853.4kbits/s speed=9.12x
    miyunda
        6
    miyunda  
    OP
       2020-12-10 13:52:30 +08:00
    使用 HEVC 是这样:
    frame= 2203 fps= 84 q=-0.0 Lsize= 10299kB time=00:01:13.60 bitrate=1146.2kbits/s speed=2.82x
    orangy
        7
    orangy  
       2020-12-10 13:57:16 +08:00 via iPhone
    Windows 版 QQ 影音是有格式转换功能的,可以试试 Mac 版行不行…
    wydinhk
        8
    wydinhk  
       2020-12-10 13:59:41 +08:00
    开 videotoolbox 码率设高点才行,默认的那个质量真是肉眼可见的差
    jevonszmx
        9
    jevonszmx  
       2020-12-10 14:08:41 +08:00
    人人译视界,其实就是封装了一下 ffmpeg,
    hello2060
        10
    hello2060  
       2020-12-10 15:31:58 +08:00 via iPhone   ❤️ 1
    @miyunda 你如果只要转换格式,不重新编码(这样速度很快)那就用-vcodec copy -acodec copy (应该是这两个参赛有点记不得了)

    当然如果目标文件格式没法接受现有音视频格式的话这会失败

    ffmpeg 有一些 有一些质量参数你可以用,没必要自己指定码率之类的
    hello2060
        11
    hello2060  
       2020-12-10 15:35:31 +08:00 via iPhone
    @miyunda 上面那个 c copy 应该是 acodec+vcodec copy 的简化命令应该是一样的
    lakehylia
        12
    lakehylia  
       2020-12-10 15:39:00 +08:00
    ffmpeg,你值得拥有,随便转,非常强大。
    Liampor
        13
    Liampor  
       2020-12-11 01:58:39 +08:00
    handbrake 妥妥的,使用起来比直接 ffmpeg 要方便
    laogui
        14
    laogui  
       2020-12-11 09:05:28 +08:00 via Android
    handbrake 用起来还行,但那个大菠萝图标丑的都不想打开。
    justaname
        15
    justaname  
       270 天前
    @CSE permute3 底层用的是 ffmpeg 有什么来源吗,我用 ffmpeg 开硬件加速 hevc 转出来的视频有部分根本打不开,而且全部不被 photos 识别,参数是用的默认参数,就加了 videotoolbox 的硬件加速选项。用 permute 转码出来就完全正常,速度的话是差不多的。
    我用的是 m1 pro 的机器,ffmpeg 是从 homebrew 下载的,不清楚是不是有什么魔法参数没有设置,不过就我的体验来说 permute 的体验明显更好
    关于   ·   帮助文档   ·   API   ·   FAQ   ·   我们的愿景   ·   广告投放   ·   感谢   ·   实用小工具   ·   4282 人在线   最高记录 5497   ·     Select Language
    创意工作者们的社区
    World is powered by solitude
    VERSION: 3.9.8.5 · 32ms · UTC 06:36 · PVG 14:36 · LAX 23:36 · JFK 02:36
    Developed with CodeLauncher
    ♥ Do have faith in what you're doing.